#TITLE:Be For You, Be For Me ~ Naru & Keitaro Ver. ~;
#SUBTITLE:- Love Hina Again 3rd Ending;
#ARTIST:上田祐司＆堀江由衣;
#TITLETRANSLIT:;
#SUBTITLETRANSLIT:;
#ARTISTTRANSLIT:Yuji Ueda & Yui Horie;
#CREDIT:Tweety3187;
#BANNER:hina-logo.jpg;
#BACKGROUND:hina-bg.jpg;
#LYRICSPATH:;
#CDTITLE:cdtitle02.png;
#MUSIC:Love Hina Again.mp3;
#OFFSET:0.800;
#SAMPLESTART:99.880;
#SAMPLELENGTH:12.000;
#SELECTABLE:YES;
#BPMS:0.000=126.200;
#STOPS:;
#BGCHANGES:;
// cache tags:
#FIRSTBEAT:4.000;
#LASTBEAT:289.500;
#SONGFILENAME:Songs/nhac/[Tweety3187] Be For You, Be For Me ~Naru & Keitaro Ver.~ -Love Hina Again 3rd ED/Love Hina Again.sm;
#HASMUSIC:1;
#HASBANNER:1;
#MUSICLENGTH:138.452;
// end cache tags

//---------------dance-single - ----------------
#NOTES:
     dance-single:
     :
     Challenge:
     12:
     1.000,1.000,1.000,0.202,1.000,1059.000,452.000,28.000,0.000,0.000:
0000
0000
0000
0000
,
1100
1100
0000
0011
0011
0000
1100
1100
0000
0110
0110
0000
1001
0110
1001
0110
,
1001
0010
0100
1000
0011
0100
0010
0001
0110
1000
0001
1000
0101
0010
0001
0100
,
1010
0100
1000
0100
0011
0100
1000
0001
0110
1000
0001
0010
1100
0001
0010
0100
,
1001
0100
0010
0001
0110
1000
0100
1000
0011
0100
1000
0001
1010
0100
0001
1000
,
0011
0100
0001
1000
0110
1000
0100
0010
1100
0001
0100
0010
1001
0010
0100
0001
,
0110
1000
0001
1000
0110
0001
0010
0100
0011
1000
0100
0010
1100
0001
0100
1000
,
0101
0010
0100
0010
1100
0001
0100
1000
0011
0100
0001
1000
0101
0010
0100
0010
,
1001
0010
0100
1000
0011
0100
1000
0001
1100
0001
0010
0001
0110
1000
0001
0100
,
1001
0010
0100
1000
0110
1000
0001
0010
1100
0010
0100
0010
1001
0100
0010
0001
,
0000
0000
0001
1000
0001
1000
0001
0000
0000
0010
0000
0000
0010
0000
0000
0000
0000
0000
0000
0000
1000
0100
1000
0100
1000
0000
0000
1000
0000
0000
1000
0000
0000
0000
0000
0010
0001
0010
0001
0010
0000
0000
0100
0000
0000
0100
0000
0000
,
1001
0100
0011
0101
0010
1001
0000
0110
0011
0110
1000
0101
1000
0000
0110
0001
,
1100
0010
0011
0011
0100
1001
0000
2100
0010
0100
0010
3001
0110
0000
0110
0011
,
1001
0100
0011
0101
1000
0110
0000
1002
0010
0100
0013
0100
1010
0000
1100
1100
,
0011
0100
1001
1001
0001
0110
0000
1020
0001
1000
0031
1000
0101
1000
0100
0010
,
1100
0010
1001
1010
0001
1100
0000
0011
1001
0011
0100
1010
0100
0000
0011
1000
,
0110
0001
1001
1001
0010
1100
0000
0210
0001
0010
0001
1300
0011
0000
0011
1001
,
1100
0010
1001
1010
0100
0011
0000
2100
0001
0010
3001
0010
0101
0000
0110
0110
,
1001
0000
0010
0000
1100
0000
1100
0000
1000
0000
0011
0000
0000
0000
0101
0000
1010
0000
0100
0000
0010
0000
1000
0100
0011
0000
1000
0000
0110
0000
0001
0000
,
1010
0001
0100
0010
1100
0001
0000
1000
0110
0001
0000
0101
0010
0000
1010
0000
,
0101
0010
1000
0100
0000
0001
0110
1000
0110
0001
0000
0010
0100
0000
1001
0000
,
0101
0010
0110
1010
0000
0001
1010
0101
0000
0010
0101
1000
0101
0000
1010
0000
,
0101
0000
0010
0000
1000
0000
0010
0000
0100
0000
1000
0000
0010
0000
0001
0010
1100
0000
0010
0000
0001
0000
0100
0000
1010
0000
0001
0000
0110
0000
1000
0000
,
0011
0100
1000
0001
1100
0010
0000
0100
0011
1000
0000
0101
0010
0000
0101
0000
,
0011
1000
0001
0100
1010
0001
0000
0001
0110
1000
0000
0010
0100
0000
1010
0000
,
0011
0100
1001
0011
0000
1001
0000
0110
0000
0010
0000
0001
1000
0000
0101
0000
,
1010
0001
0110
1000
0011
0000
1010
1100
0000
1100
0000
1100
1100
1100
0000
0101
,
0101
0101
0000
1001
1001
0000
0110
0000
1002
0010
0100
1000
0100
0010
0100
0013
,
1001
1001
1010
1010
0110
1100
0110
0011
1001
0100
0011
0101
1000
0010
1100
0011
,
0100
0010
1001
0100
0010
1100
0011
0110
1100
0001
1010
1100
0001
0100
1010
0101
,
0010
1000
0011
0100
0010
1000
0110
0001
1010
0100
1001
0010
1100
0011
0100
0012
,
0000
0100
0010
0103
1010
0110
1100
0011
0101
0010
1000
0100
0010
1100
0011
0101
,
1001
0010
0110
1100
0001
1010
1100
0011
0101
1000
0110
1001
0010
0100
0011
1100
,
0001
0100
1010
0001
0100
1100
0011
0101
1001
0010
0101
1100
0010
0001
0110
0110
,
1000
0001
1010
0100
0001
0010
0100
0001
1010
0100
0011
1010
0100
0011
1000
0210
,
0000
0001
0010
0301
1010
0100
0001
0010
1100
0001
0110
0110
1000
0101
1000
0012
,
0100
0003
0110
1000
0011
0100
1001
0010
1100
0000
0110
1100
0000
0011
0022
0000
,
0000
0000
0000
0033
0000
0000
1000
0000
0000
0100
0000
0000
0001
0000
0010
0000
0100
0000
1000
0000
0100
0000
0010
0000
1002
0000
0000
0000
0000
0000
0203
0000
0000
0000
0000
0000
0320
0000
0000
0000
0000
0000
0032
0000
0000
0000
0000
0000
,
0000
0003
0200
0000
0310
1000
0100
0010
1100
0110
0011
1001
0010
0101
1000
0110
,
0001
1010
0100
0011
1001
0100
1010
0001
1100
0011
0101
1001
0100
1001
0010
0101
,
0010
1001
0100
0011
0101
1000
0110
0001
1100
0110
1100
0011
1000
0101
0010
1001
,
0010
0101
1000
0110
1010
0100
0011
1000
0101
1010
1100
0011
1000
0011
0100
1010
,
0001
0110
1000
0011
1001
0100
0110
0001
1001
0100
1000
0011
0110
1000
0001
0100
,
1010
0001
0010
1100
0011
1000
0100
0010
0101
1000
0001
0110
1010
0001
0010
1000
,
0101
0010
0100
1001
1001
0010
1000
0001
0110
1000
0100
0011
0101
1000
0100
0001
,
1010
0001
1000
0110
1100
0001
0010
0100
1001
0010
0001
0110
1001
0010
0001
0010
,
1100
0001
0100
0011
1100
0001
0100
0001
1010
0100
0001
1010
0101
0010
1000
0001
,
0110
1000
0100
1001
0110
1000
0100
1000
0011
0100
0010
0101
1010
0001
0100
0001
,
1100
0010
0001
0110
1010
0001
0100
0010
0101
1000
0010
1001
0101
0010
0100
1000
,
0110
0001
1000
0011
0101
1000
0010
0001
0110
1000
0001
1100
1100
0010
0001
1000
,
0110
0001
0100
1010
0101
0010
0100
1000
0011
0011
0000
0110
0110
0110
0000
1010
,
1010
1010
0000
0110
0011
0000
1001
0000
0101
0000
0000
1010
1010
0000
0101
1100
,
0000
0011
1010
0000
0000
0010
0100
1000
1100
0010
1001
1010
0100
0001
0110
1001
,
0010
0001
1100
0010
0001
0110
1001
0011
0110
1000
0101
0110
1000
0010
0101
1010
,
0001
0100
1001
0010
0001
0100
0011
1000
0101
0010
1100
0001
0110
1001
0010
2001
,
0000
0010
0001
3010
0101
0011
0110
1001
1010
0001
0100
0010
0001
0110
1001
1010
,
1100
0001
0011
0110
1000
0101
0110
1001
1010
0100
0011
1100
0001
0010
1001
0110
,
1000
0010
0101
1000
0010
0110
1001
1010
1100
0001
1010
0110
0001
1000
0011
0011
,
0100
1000
0101
0010
1000
0001
0010
1000
0101
0010
1001
0101
0010
1001
0100
0021
,
0000
1000
0001
1030
0101
0010
1000
0001
0110
1000
0011
0011
0100
1010
0100
2001
,
0010
3000
0011
0100
1001
0010
1100
0001
0110
0000
0011
0110
0000
1001
2002
0000
,
0000
0000
0000
3003
0000
0000
0100
0000
0000
0010
0000
0000
1000
0000
0001
0000
0010
0000
0100
0000
0010
0000
0001
0000
2100
0000
0000
0000
0000
0000
3020
0000
0000
0000
0000
0000
0032
0000
0000
0000
0000
0000
2003
0000
0000
0000
0000
0000
,
0000
3000
0020
0000
0031
0100
0010
0001
0110
0001
1000
0001
1010
0100
0001
0010
,
0101
1000
0010
0001
0110
1000
0001
0100
1010
0001
0010
0100
0011
1000
0100
0010
,
0101
1000
0010
0100
1001
0010
0100
0001
1010
0100
0001
0010
1100
0001
1000
0010
,
0101
1000
0100
0010
0101
1000
0010
0100
1010
0001
0100
0001
1100
0010
0001
1000
,
0110
1000
0001
1000
0011
1000
0100
0001
1010
0100
0010
0001
1100
0010
0001
0100
,
1010
0001
0010
0100
1010
0001
0100
0010
0101
1000
0010
0001
0110
1000
0001
0100
,
1010
0001
0010
0100
0011
1000
0100
1000
0101
0010
1000
0010
1001
0100
0010
0001
,
0110
0001
1000
0010
1001
0100
0010
0001
0110
0001
0100
1000
0011
1000
0100
0010
,
0101
0000
0000
1000
0000
0000
0010
0000
0000
0100
0000
0000
0110
0000
0000
0001
0000
0000
1000
0000
0000
0010
0000
0000
0000
0000
0010
0100
0010
0100
0010
0000
0000
1000
0000
0000
1000
0000
0000
0000
0000
0000
0000
0000
0100
0001
0100
0001
,
0100
0000
0000
0100
0000
0000
0100
0000
0000
0000
0000
1000
0010
1000
0010
1000
0000
0000
0001
0000
0000
0001
0000
0000
0110
0000
0000
0000
0000
0000
1001
0000
0000
0001
0000
0000
0110
0000
0000
1010
0000
0000
0000
0000
0000
0110
0000
0000
,
0220
0330
0000
0000
;

//---------------dance-single - Copied from----------------
#NOTES:
     dance-single:
     Copied from:
     Medium:
     6:
     0.399,0.601,0.231,0.173,0.000,331.000,32.000,24.000,0.000,0.000:
0000
0000
0000
0000
,
0000
0000
0000
0000
,
1000
1000
0001
1000
,
0010
0100
0001
1000
,
0010
0010
0100
0001
,
0010
0100
1000
0001
,
0100
0100
0000
0001
,
1000
0001
1000
0010
,
0100
0010
0100
1000
,
0010
0100
0001
1000
,
1001
0000
0000
0000
,
1000
0010
1000
0000
0010
0100
0010
0000
,
0001
0010
0001
0000
1000
0001
1000
0000
,
0100
0001
0100
0000
0010
1000
0010
0000
,
0100
0010
1000
0000
0001
1000
0010
0010
,
0001
0010
0100
0000
1000
0100
0010
0000
,
0100
0010
0001
0000
0010
0100
0010
0000
,
1000
0010
1000
0000
0100
0001
0100
0000
,
0010
0001
0010
0000
1002
1003
0100
0010
,
2000
0001
0010
3001
0020
1000
0100
1030
,
0200
0010
0001
0310
0002
1000
0100
1003
,
0010
0100
0010
0000
1000
0001
1000
0000
,
2001
0001
0001
0001
0001
3001
0010
0100
,
1001
0100
0010
0000
0001
0100
0010
0000
,
1000
0100
1000
0000
0001
0100
0001
0000
,
0010
0100
0010
0000
1000
0010
1000
0000
,
0001
0100
0001
0220
0000
0000
0000
0000
,
0000
0000
0000
0330
0000
0000
0000
0000
,
0000
0000
0000
0000
2000
0001
0010
3001
,
0100
0010
1001
0110
0002
1000
0100
1003
,
0001
1000
0110
1001
0010
0100
0010
0000
,
1000
0100
1000
0000
0001
0010
0001
0000
,
0110
1001
0110
0000
0020
0100
1000
0130
,
0001
0010
1100
1001
0200
0001
0010
0301
,
0010
1000
0011
0101
0010
1000
0010
0000
,
0100
0010
0100
0000
0001
1000
0001
0000
,
0100
0010
0001
0000
2002
0000
0000
0000
,
0000
0000
0000
3003
,
0000
0000
0001
0100
,
0010
1000
0001
0001
,
0010
1000
0001
0100
,
0010
0001
0010
0001
,
0100
1000
0010
0010
,
0100
0001
1000
0010
,
0100
0001
1000
0100
,
1000
1000
0001
0010
,
0100
0001
1000
0010
,
0100
0001
0001
0100
,
1000
0010
0100
0010
,
0100
0001
1000
0010
,
0010
0100
1001
0000
,
0000
0000
0000
0000
,
0000
0000
0000
0000
2000
0001
0010
3001
,
0100
0010
1001
0110
0002
1000
0100
1003
,
0001
1000
0110
1001
0010
0100
0010
0000
,
1000
0100
1000
0000
0001
0010
0001
0000
,
0110
1001
0110
0000
0020
0100
1000
0130
,
0001
0010
1100
1001
0200
0001
0010
0301
,
0010
1000
0011
0101
0010
1000
0010
0000
,
0100
0010
0100
0000
0001
1000
0001
0000
,
0100
0010
0001
0000
2002
0000
0000
0000
,
0000
0000
0000
3003
,
0000
0000
0001
0100
,
0010
1000
0001
0001
,
0010
1000
0001
0100
,
0010
0001
0010
0001
,
0100
1000
0010
0010
,
0100
0001
1000
0010
,
0100
0001
1000
0100
,
1000
1000
0001
0010
,
0100
0001
0220
0000
,
0000
0000
0000
0000
0000
0000
0000
0330
,
2002
0000
0000
3003
0000
0000
0000
0000
;

//---------------dance-single - Copied from----------------
#NOTES:
     dance-single:
     Copied from:
     Hard:
     10:
     1.000,1.000,1.000,0.376,1.000,835.000,304.000,52.000,0.000,0.000:
0000
0000
0000
0000
,
1100
1100
0000
0011
0011
0000
1100
1100
0000
0110
0110
0000
1001
0110
1001
0110
,
1001
0010
0100
1000
0001
0100
0010
0001
1000
0100
0010
0001
0010
0100
1000
0100
,
0010
0100
1000
0100
0010
0100
1000
0001
0010
1000
0001
0010
0100
0001
0010
0100
,
1001
0100
0010
0001
0010
1000
0100
1000
0001
0100
1000
0001
0010
0100
0001
1000
,
0010
0100
0001
1000
0010
1000
0100
0010
0100
0001
0100
0010
1000
0010
0100
0001
,
0110
1000
0001
1000
0100
0001
0010
0100
0001
1000
0100
0010
1000
0001
0100
1000
,
0001
0010
0100
0010
1000
0001
0100
1000
0010
0100
0001
1000
0001
0010
0100
0010
,
1001
0010
0100
1000
0001
0100
1000
0001
0100
0001
0010
0001
0010
1000
0001
0100
,
1001
0010
0100
1000
0100
1000
0001
0010
1000
0010
0100
0010
1000
0100
0010
0001
,
0000
0000
0001
1000
0001
1000
0001
0000
0000
0010
0000
0000
0010
0000
0000
0000
0000
0000
0000
0000
1000
0100
1000
0100
1000
0000
0000
1000
0000
0000
1000
0000
0000
0000
0000
0010
0001
0010
0001
0010
0000
0000
0100
0000
0000
0100
0000
0000
,
1001
0100
0011
0101
0000
1001
0000
0110
0011
0100
1000
0101
0000
0000
0110
0000
,
1100
0010
0011
0011
0000
1001
0000
2100
0000
0000
0010
3001
0110
1000
0100
0010
,
1001
0000
0011
0101
0000
0110
0000
1002
0000
0000
0013
0100
1010
0001
1100
1100
,
0011
0000
1001
1001
0001
0110
0000
1020
0000
0000
0130
1000
0101
1000
0100
0010
,
1100
0010
1001
1010
0000
1100
0000
0011
1001
0010
0100
1010
0000
0000
0011
0000
,
0101
0010
1001
1001
0000
1100
0000
0210
0000
0000
0001
1300
0011
0100
0011
1001
,
1100
0000
1001
1010
0000
0011
0000
2100
0000
0000
3001
0010
0101
1000
0110
0110
,
1001
0000
1100
1100
0000
0011
0000
0102
1000
0100
1003
0100
0011
1000
0110
0001
,
1010
0001
0100
0010
1001
0000
0010
0000
0101
0000
1000
0000
0110
0000
0001
0000
,
0101
0010
1100
0001
1010
0100
1100
0001
,
0101
1000
0110
0001
1010
0100
0011
1000
,
0101
0010
0110
1000
0101
0001
0110
1000
,
0101
0010
1100
0001
0110
0001
1010
1000
,
0110
1000
0011
0100
1010
0001
1100
0010
,
0101
0010
1001
0100
1001
0010
0101
0010
,
1100
0000
0100
0000
0011
0000
1010
0011
0000
1100
0000
1100
1100
1100
0000
0101
,
0101
0101
0000
1001
1001
0000
0110
0000
1002
0000
0100
0000
0100
0000
0100
0003
,
2001
0000
0001
0000
3001
1000
0100
0010
0011
0000
1010
0110
0000
0000
1001
1001
,
0000
0000
0012
0000
0100
0013
0100
0010
1100
0000
1010
0110
0000
0000
1001
1001
,
0000
0000
0201
0000
0310
1000
0001
0000
1010
0000
0100
0000
0011
0011
0000
0201
,
0000
0010
0001
0310
0001
0010
1100
0010
2001
0000
0010
0000
3010
0001
0100
0010
,
1001
0100
0011
0011
0000
0010
0100
0001
1010
0000
0110
1100
0000
0000
0101
0110
,
0000
0000
1020
0000
0130
1000
0001
0100
0011
0000
1010
1100
0000
0000
0011
0011
,
0000
0000
0102
0000
0010
1000
0103
0010
1100
0000
1010
0101
0000
1010
0000
0210
,
0000
0001
0010
0001
0310
0001
0010
0100
1010
0000
0101
1010
0000
1100
0000
2100
,
0100
0000
0000
0000
3002
0000
0000
0000
0023
0000
0000
0000
0230
0000
0000
0300
0022
0000
0000
0000
0000
0033
2020
0000
0000
0000
0000
3030
0202
0000
0000
0000
,
0000
0000
0000
0303
0000
0200
0320
0032
,
0000
0003
0200
0000
0310
1000
0100
0010
1000
0100
0010
0001
0010
0100
0010
0001
,
0010
0001
0010
0001
0010
0001
0010
0001
1000
0100
1000
0100
0010
0100
0010
0100
,
0001
0010
0001
0010
0001
0010
0100
1000
0001
0010
0100
1000
0001
0010
0100
1000
,
1000
0100
0010
0001
1000
0100
0010
0001
1000
0100
0010
0100
0001
0010
0100
0001
,
1000
0010
0100
0010
0001
0010
0100
0001
1010
0000
0000
0011
0110
0000
0000
0110
,
1010
0000
0000
1100
0011
0000
1100
0000
0101
0000
0000
0110
1010
0000
0000
1100
,
0101
0000
0000
1001
1001
0000
0110
0000
0110
0000
0000
0011
0101
0000
0000
0101
,
1010
0000
0000
0110
1100
0000
0110
0000
1001
0000
0000
0110
0011
0000
0000
1010
,
0110
0000
0000
0101
1010
0000
0110
0000
1100
0000
0000
0011
0011
0000
0000
1010
,
1010
0000
0000
0110
0110
0000
1001
0000
0110
0000
0000
1001
0110
0000
0000
0011
,
1100
0000
0000
1010
0101
0000
0110
0000
1010
0000
0000
0011
0101
0000
0000
1010
,
0101
0000
0000
0110
1100
0000
0011
0000
1010
0000
0000
1100
0101
0000
0000
1010
,
0110
0000
0000
0110
0011
0000
0110
0000
1001
1001
0000
0110
0110
0110
0000
1010
,
1010
1010
0000
0110
0011
0000
1001
0000
0101
0000
0000
1010
1010
0000
0101
1100
,
0000
0011
1010
0000
0000
0010
0100
1000
0101
0000
0110
1100
0000
0000
0011
0011
,
0000
0000
0102
0000
1000
0103
1000
0100
1010
0000
0110
1100
0000
0000
0011
0011
,
0000
0000
2001
0000
3100
0010
0001
0000
0110
0000
1000
0000
0101
0101
0000
2001
,
0000
0100
0001
3100
0001
0100
1010
0100
0021
0000
0100
0000
0130
0001
1000
0100
,
0011
1000
0101
0101
0000
0100
1000
0001
0110
0000
1100
1010
0000
0000
1001
1100
,
0000
0000
0210
0000
1300
0010
0001
1000
0101
0000
0110
1010
0000
0000
0101
0101
,
0000
0000
1002
0000
0100
0010
1003
0100
1010
0000
0110
1001
0000
0110
0000
2100
,
0000
0001
0100
0001
3100
0001
0100
1000
0110
0000
1001
0110
0000
1010
0000
1020
,
1000
0000
0000
0000
0032
0000
0000
0000
0203
0000
0000
0000
2300
0000
0000
3000
0202
0000
0000
0000
0000
0303
0220
0000
0000
0000
0000
0330
2002
0000
0000
0000
,
0000
0000
0000
3003
0000
2000
3200
0302
,
0000
0003
2000
0000
3100
0010
1000
0100
0011
1000
0100
0010
0100
0001
0010
0100
,
0010
0100
0010
0100
0010
1000
0001
0100
0001
0010
0100
1000
0010
0100
0001
0100
,
0010
0100
1000
0100
0010
0100
1000
0100
1010
0001
0010
0100
0010
0001
0010
0100
,
0001
1000
0010
0100
0001
0010
0100
1000
0001
0100
0010
1000
0001
0100
0010
0001
,
1000
0010
0100
0001
0010
0100
1000
0100
0011
1000
0010
0001
0100
0001
1000
0010
,
0100
1000
0001
1000
0010
1000
0001
1000
0100
1000
0001
1000
0010
0100
0001
0010
,
0100
0001
1000
0001
0100
0010
1000
0001
0110
1000
0001
1000
0001
1000
0010
0100
,
0001
0010
0100
1000
0001
1000
0010
1000
0100
1000
0001
1000
0010
0100
0001
0100
,
1000
0000
0000
0010
0000
0000
0001
0000
0000
0100
0000
0000
0010
0000
0000
1000
0000
0000
0001
0000
0000
0010
0000
0000
0001
0000
0100
1000
0100
1000
0100
0000
0000
0010
0000
0000
0010
0000
0000
0000
0000
0000
0000
0000
1000
0001
1000
0001
,
1000
0000
0000
1000
0000
0000
1000
0000
0000
0000
0000
0010
0100
0010
0100
0010
0000
0000
0001
0000
0000
0001
0000
0000
1100
0000
0000
0000
0000
0000
0011
0000
0000
0001
0000
0000
1100
0000
0000
0110
0000
0000
0000
0000
0000
1100
0000
0000
,
2200
3300
0000
0000
;
